انقر هنا لمشاهدة النسخة الكاملة للصفحة

تورنت - البرمجة بلغة التجميع Assembly Language Programming [بالعربية][720p]

تعليمي الحجم : 245.98 MB التراكر: داخلي المتصلين : 0,2  اكتمل ( 104 ) 13/01/2017 تحميل التورنت

 1 arabp2p.com

يسرني أن أقدم لكم
دورة كُنْ مبرمجًا حقيقيًا
البرمجة بلغة التجميع
assembly language programming
 2 arabp2p.com
 3 arabp2p.com

مقدمة

- في البداية سأقوم بتوضيح بعض الامور المتعلقة بلغة التجميع
assembly language
تعتبر من اقدم اللغات التي عرفها مجال البرمجة فهي تلي لغة الالة  
في صعوبتها لكن في نفس الوقت تعد اسهل في التعامل
من اجل التخاطب مع الحاسب بكافة اجزائه
اذن نخلص الى القول بان لغة التجميع لغة قوية جدا تسمح لك بالسيطرة على
كافة اجزاء الحاسب ناهيك عن سرعة تنفيذ التطبيق المكتوب بها
بما ان هذه اللغة تحتاج الى مستوى خبرة معينة قبل البدء فيها
تجد الكثيرين يعكفون عنها نظرا لانها تتطلب مستوى معين من الفهم فيما
يتعلق ببعض امور الدارات الالكترونية
(هذا لو اردتم اتقانها من الصفر تماما) ومسائل التخاطب
بين العتاد البرمجي والاجهزة الملحقة وكيفية جلب وتنفيذ التعليمات ضمن المعالج
وبعض التفصيلات المتعلقة بتناقل البيانات عبر الكبلات الموسعة وما الى هذا
هذا الامر يجعل عملية الدخول في اللغة غير مباشر فانت تجد نفسك
 تدرس الكترونيات "نظرية" اكثر منه برمجة في البداية
لكن ثق بأن هذا الامر يعتبر ضروري ليس لتصبح مبرمج بلغة التجميع
لكن اقله لتكون على دراية كيف يعمل برنامجك
وكيف يتم التعامل معه من قبل النظام
فيما يخص الذاكرة او البيانات وما الى هذا

ملحوظة
هذه الدورة موجه إلى من يدرسون مادة برمجة النظم systems programming
محتويات الدورة
 4 arabp2p.com
 5 arabp2p.com
 6 arabp2p.com
 7 arabp2p.com
 8 arabp2p.com
 9 arabp2p.com
 10 arabp2p.com
 11 arabp2p.com
 12 arabp2p.com
 13 arabp2p.com
 14 arabp2p.com
 15 arabp2p.com

المصادر والمراجع
 16 arabp2p.com
 17 arabp2p.com
General
Format                      : MPEG-4
Format profile              : Base Media
Codec ID                    : isom (isom)
File size                   : 76.2 MiB
Duration                    : 49 min 25 s
Overall bit rate mode       : Variable
Overall bit rate            : 216 kb/s
Encoded date                : UTC 2017-01-12 13:00:29
Tagged date                 : UTC 2017-01-12 13:00:29

Video
ID                          : 1
Format                      : AVC
Format/Info                 : Advanced Video Codec
Format profile              : Main@L3.1
Format settings, CABAC      : Yes
Format settings, ReFrames   : 3 frames
Codec ID                    : avc1
Codec ID/Info               : Advanced Video Coding
Duration                    : 49 min 25 s
Bit rate                    : 86.6 kb/s
Maximum bit rate            : 1 676 kb/s
Width                       : 1 280 pixels
Height                      : 720 pixels
Display aspect ratio        : 16:9
Frame rate mode             : Constant
Frame rate                  : 24.000 FPS
Color space                 : YUV
Chroma subsampling          : 4:2:0
Bit depth                   : 8 bits
Scan type                   : Progressive
Bits/(Pixel*Frame)          : 0.004
Stream size                 : 30.6 MiB (40%)
Encoded date                : UTC 2016-08-24 22:35:54
Tagged date                 : UTC 2017-01-12 13:00:37

Audio
ID                          : 2
Format                      : AAC
Format/Info                 : Advanced Audio Codec
Format profile              : LC
Codec ID                    : 40
Duration                    : 49 min 25 s
Bit rate mode               : Variable
Bit rate                    : 126 kb/s
Maximum bit rate            : 134 kb/s
Channel(s)                  : 2 channels
Channel positions           : Front: L R
Sampling rate               : 44.1 kHz
Frame rate                  : 43.066 FPS (1024 spf)
Compression mode            : Lossy
Stream size                 : 44.4 MiB (58%)
Language                    : Arabic
Encoded date                : UTC 2016-08-24 22:35:54
Tagged date                 : UTC 2017-01-12 13:00:37





 18 arabp2p.com


الملفات ذات العلاقة بـ ( البرمجة بلغة التجميع Assembly Language Programming [بالعربية][720p] )
كورس : تعلم اندرويد بلغة كوتلين - 720 8 1 3.14 GB
أفضل و أكبر دورة عربية لتعليم لغة البرمجة Visual Basic.Net م/ أحمد الزيني [1080] 2 1 28.24 GB
كورس تعليم اللغة الانجليزية [بالعربية][720p] 3 1 4.58 GB
دورة Udemy لتعليم الاختراق الاخلاقي [بالعربية][720p] 4 0 18.38 GB
دورة Udemy لتعليم Adobe Illustrator CS6 [بالعربية][720p] 4 0 1.16 GB
hlovex1wمشكورررررررررررررر
asebtin09بارك الله فيك على المحتوى الرفيع

الرئيسية - قائمة ملفات التورنت - فيسبوك